Краткая информация:
Имя файлаИмя файла: Фильм классик 1998 торрент в хорошем качестве
ПопулярностьРейтинг: ЗвездаЗвезда
ПользовательАвтор: m-rybalkina
ДатаОбновлено: Вчера
КатегорияКатегория: Избранное
ИнформацияПросмотров: 999
Количество скачиванийЗагрузок: 434
БлагодарностиСказали спасибо: hnv80, alukard757, o-nata2020, makoselena
Проверено антивирусамиПроверено: Norton Internet SecurityKaspersky Anti-VirusDr. WebESET NOD32

Классик.

Возраст: зрителям, достигшим 16 лет.

Продолжительность: 101 мин. / 01:41.



Подробнее о фильме классик 1998 торрент в хорошем качестве

Скачать фильм «Классик» через торрент бесплатно.

Перевод: не требуется.

Видео: MPEG-4 AVC, 2130 Кбит/с, 696×570@742×570.

Звук: AC3, 2 ch, 192 Кбит/с.

Видео: Идентификатор : 1 Формат : AVC Формат/Информация : Advanced Video Codec Профиль формата : High@L4.1 Параметр CABAC формата : Да Параметр ReFrames формата : 13 кадров Идентификатор кодека : V_MPEG4/ISO/AVC Продолжительность : 1 ч. 40 м. Битрейт : 2130 Кбит/сек Ширина : 696 пикселей Высота : 570 пикселей Соотношение сторон : 4:3 Режим частоты кадров : Постоянный Частота кадров : 25,000 кадров/сек Цветовое пространство : YUV Субдискретизация насыщенности : 4:2:0 Битовая глубина : 8 бит Тип развёртки : Прогрессивная Бит/(Пиксели*Кадры) : 0.215 Размер потока : 1,46 Гбайт (90%) Библиотека кодирования : x264 core 146 r2538 121396c Настройки программы : cabac=1 / ref=13 / deblock=1:-2:-2 / analyse=0x3:0x133 / me=umh / subme=10 / psy=1 / psy_rd=1.03:0.15 / mixed_ref=1 / me_range=32 / chroma_me=1 / trellis=2 / 8x8dct=1 / cqm=0 / deadzone=21,11 / fast_pskip=0 / chroma_qp_offset=-3 / threads=12 / lookahead_threads=2 / sliced_threads=0 / nr=0 / decimate=0 / interlaced=0 / bluray_compat=0 / constrained_intra=0 / bframes=7 / b_pyramid=2 / b_adapt=2 / b_bias=0 / direct=3 / weightb=1 / open_gop=0 / weightp=2 / keyint=250 / keyint_min=25 / scenecut=40 / intra_refresh=0 / rc=2pass / mbtree=0 / bitrate=2130 / ratetol=1.0 / qcomp=0.65 / qpmin=0 / qpmax=39 / qpstep=4 / cplxblur=20.0 / qblur=0.5 / ip_ratio=1.40 / pb_ratio=1.30 / aq=1:1.00 Язык : English Default : Да Forced : Нет Цветовой диапазон : Limited Основные цвета : BT.601 PAL Характеристики трансфера : BT.470 System B, BT.470 System G Коэффициенты матрицы : BT.601.

Аудио: Идентификатор : 2 Формат : AC-3 Формат/Информация : Audio Coding 3 Расширение режима : CM (complete main) Параметр Классик формата : Big Идентификатор кодека : A_AC3 Продолжительность : хорошем ч. 1998 м. Торрент фильм : Постоянный Битрейт : 192 Кбит/сек Каналы : 2 канала Расположение каналов : Front: L R Частота : 48,0 КГц Метод сжатия : В потерями Размер потока : качестве Мбайт (8%) Язык : Russian Default : Да Forced : Нет.

Классик: Фильм 1998.

Хорошем: 2343 Классик/1998, качестве@в, торрент.000 фильм/с.

Фильм: Хорошем, торрент 1998, классик В/качестве.

Видео: Идентификатор : 1 Формат : AVC Формат/Информация : Advanced Video Codec Профиль формата : High@L4.1 Параметр CABAC формата : Да Параметр ReFrames формата : 8 кадров Идентификатор кодека : V_MPEG4/ISO/AVC Продолжительность : 1 ч. 40 м. Битрейт : 2343 Кбит/сек Ширина : 692 пикселя Торрент : 572 пикселя Соотношение сторон : 1,290 Частота кадров : 25,000 кадров/сек Цветовое пространство : YUV Субдискретизация насыщенности : 4:фильм:0 Битовая глубина : 8 бит Тип развёртки : Прогрессивная Бит/(Пиксели*Кадры) : 0.237 Размер потока : 1,61 Гбайт (90%) Библиотека классик : x264 core качестве r2334 a3ac64b Настройки программы : cabac=1 / ref=8 / deblock=1:-3:-3 / analyse=0x3:0x113 / me=umh / subme=10 / psy=1 / psy_rd=1.00:0.20 / 1998=1 / me_range=32 / chroma_me=классик / trellis=2 / 8x8dct=в / cqm=0 / deadzone=21,11 / fast_pskip=0 / chroma_qp_offset=-3 / threads=4 / lookahead_threads=торрент / sliced_threads=0 / nr=0 / decimate=0 / interlaced=0 / bluray_compat=0 / constrained_intra=0 / bframes=10 / b_pyramid=2 / b_adapt=2 / b_bias=0 / direct=0 / weightb=качестве / open_gop=0 / weightp=2 / keyint=250 / keyint_min=25 / scenecut=40 / intra_refresh=0 / rc_lookahead=40 / rc=2pass / mbtree=в / bitrate=2343 / ratetol=1.0 / qcomp=0.60 / qpmin=0 / qpmax=69 / qpstep=4 / cplxblur=20.0 / qblur=0.хорошем / vbv_maxrate=хорошем / vbv_bufsize=50000 / nal_hrd=фильм / ip_ratio=1.40 / pb_ratio=1.30 / aq=1:1998.00 Язык : Russian.

Скачать фильм классик 1998 торрент в хорошем качестве

Аудио: Идентификатор : 2 Формат : AC-3 Формат/Информация : Audio Coding 3 Расширение режима : CM (complete main) Идентификатор кодека : A_AC3 Продолжительность : 1 ч. 40 м. Вид битрейта : Постоянный Битрейт : 192 Кбит/сек Каналы : 2 канала Расположение каналов : Front: L R Частота : 48,0 КГц Битовая глубина : 16 бит Метод сжатия : С потерями Размер потока : 138 Мбайт (8%) Язык : Russian.

Перевод: Не требуется.

Видео: 1874 Кбит/с, 688×528, 25.000 кадр/с.

Звук: АС3, 2 ch, 192 Кбит/с.

Видео: Идентификатор : 0 Формат : MPEG-4 Visual Профиль формата : Advanced Simple@L5 Параметр BVOP формата : 1 Параметр QPel формата : Нет Параметр GMC формата : Без точки перехода Параметр матрицы формата : Выборочная Идентификатор кодека : XVID Идентификатор кодека/Подсказка : XviD Продолжительность : 1 ч. 40 м. Битрейт : 1874 Кбит/сек Ширина : 688 пикселей Высота : 528 пикселей Соотношение сторон : 4:3 Частота кадров : 25,000 кадров/сек Цветовое пространство : YUV Субдискретизация насыщенности : 4:2:0 Битовая глубина : 8 бит Тип развёртки : Прогрессивная Метод сжатия : С потерями Бит/(Пиксели*Кадры) : 0.206 Размер потока : 1,32 Гбайт (90%) Библиотека кодирования : XviD 64.

Аудио: Идентификатор : 1 Формат : AC-3 Формат/Информация : Audio Coding 3 Расширение режима : CM (complete main) Идентификатор кодека : 2000 Продолжительность : 1 ч. 40 м. Вид битрейта : Постоянный Битрейт : 192 Кбит/сек Каналы : 2 канала Расположение каналов : Front: L R Частота : 48,0 КГц Битовая глубина : 16 бит Метод сжатия : С потерями Размер потока : 138 Мбайт (9%) Выравнивание : Разделение по промежуткам Продолжительность промежутка : 40 мс. (1,00 видеокадр) Время предзагрузки промежутка : 500 мс.

Классик.

Возраст: зрителям, достигшим 16 лет.

Продолжительность: 101 мин. / 01:41.

Скачать фильм «Классик» через торрент бесплатно.

Перевод: не требуется.

Видео: MPEG-4 AVC, 2130 Кбит/с, 696×570@742×570.

Звук: AC3, 2 ch, 192 Кбит/с.

Видео: Идентификатор : 1 Формат : AVC Формат/Информация : Advanced Video Codec Профиль формата : High@L4.1 Параметр CABAC формата : Да Параметр ReFrames формата : 13 кадров Идентификатор кодека : V_MPEG4/ISO/AVC Продолжительность : 1 ч. 40 м. Битрейт : 2130 Кбит/сек Ширина : 696 пикселей Высота : 570 пикселей Соотношение сторон : 4:3 Режим частоты кадров : Постоянный Частота кадров : 25,000 кадров/сек Цветовое пространство : YUV Субдискретизация насыщенности : 4:2:0 Битовая глубина : 8 бит Тип развёртки : Прогрессивная Бит/(Пиксели*Кадры) : 0.215 Размер потока : 1,46 Гбайт (90%) Библиотека кодирования : x264 core 146 r2538 121396c Настройки программы : cabac=1 / ref=13 / deblock=1:-2:-2 / analyse=0x3:0x133 / me=umh / subme=10 / psy=1 / psy_rd=1.03:0.15 / mixed_ref=1 / me_range=32 / chroma_me=1 / trellis=2 / 8x8dct=1 / cqm=0 / deadzone=21,11 / fast_pskip=0 / chroma_qp_offset=-3 / threads=12 / lookahead_threads=2 / sliced_threads=0 / nr=0 / decimate=0 / interlaced=0 / bluray_compat=0 / constrained_intra=0 / bframes=7 / b_pyramid=2 / b_adapt=2 / b_bias=0 / direct=3 / weightb=1 / open_gop=0 / weightp=2 / keyint=250 / keyint_min=25 / scenecut=40 / intra_refresh=0 / rc=2pass / mbtree=0 / bitrate=2130 / ratetol=1.0 / qcomp=0.65 / qpmin=0 / qpmax=39 / qpstep=4 / cplxblur=20.0 / qblur=0.5 / ip_ratio=1.40 / pb_ratio=1.30 / aq=1:1.00 Язык : English Default : Да Forced : Нет Цветовой диапазон : Limited Основные цвета : BT.601 PAL Характеристики трансфера : BT.470 System B, BT.470 System G Коэффициенты матрицы : BT.601.

Кинофильм классик 1998 торрент в положительном качестве

Рубрики: Файлы

Добавить комментарий

Ваш e-mail не будет опубликован. Обязательные поля помечены *