Краткая информация:
Имя файлаИмя файла: Мультик три кота торрент в хорошем качестве 2016
ПопулярностьРейтинг: Звезда
ПользовательАвтор: mosyagin
ДатаОбновлено: Позавчера
КатегорияКатегория: Горячие новинки
ИнформацияПросмотров: 600
Количество скачиванийЗагрузок: 331
БлагодарностиСказали спасибо: dna-sklad, ju-1976, elena-alexandrov45, skornirina1
Проверено антивирусамиПроверено: Norton Internet SecurityKaspersky Anti-VirusDr. WebESET NOD32

Три кота (2015-2016) скачать торрент.



Подробнее о мультике три кота торрент в хорошем качестве 2016

Жанр: мультсериал, рисованный, детский, познавательный, обучающий.

Выпущено: Россия, Метраном.

Режиссер: Дмитрий Высоцкий.

В ролях: Максим Сергеев, Светлана Кузнецова, Михаил Хрусталев, Илья Хрусталев, Михаил Новодворцев, София Гадасина, Тимур Хамитов, Александра Глушинская.

Продолжительность: 00:05:00 / серия.

Мультик: Три (кота)

О мультсериале : Анимационный сериал рассказывает о жизни мультик хорошем котят. Герои фильма — братья Коржик и Компот и их маленькая сестренка Карамелька. Котята все делают вместе и поддерживают друг друга. Они попадают в разные приключения, учатся выражать свои чувства и качестве и исследуют окружающий мир. Благодаря дружным торрент кота, три в и мудрым советам 2016 и папы герои легко выходят из любой ситуации.

Мультик хорошем качестве три кота в торрент 2016

Мультик : 2016 — 52 + Торрент кота-в (три хорошем качестве пластелина)

Скачать мультик три кота торрент в хорошем качестве 2016

Режиссёр : Дмитрий Высоцкий.

«Три кота» — это история о повседневной жизни, отношениях и приключениях трех маленьких любознательных котят: Коржика, Компота и Карамельки. В их большой семье жизнь никогда не стоит на месте: вместе они учатся выражать свои эмоции, поддерживать друг друга и находить выход из любой, даже непростой на первый взгляд ситуации, при помощи своей фантазии и родительского совета.

Перевод : Не требуется.

Качество : WEBRip 720.

Видео : H.264/AVC, 1280×720, 29.97fps, 920kbps.

Аудио : AAC, 44.1 kHz, 2 chn, 126 kbit/s.

Все серии сходны по параметрам.

Параметр CABAC формата : ДаПараметр ReFrames формата : 3 кадраИдентификатор кодека : avc1Идентификатор кодека/Информация : Advanced Video CodingПродолжительность : 25 м. 52 с.Битрейт : 920 Кбит/секШирина : 1280 пикселейВысота : 720 пикселейСоотношение сторон : 16:9Режим частоты кадров : ПостоянныйЧастота кадров : 29,970 (30000/1001) кадров/секЦветовое пространство : YUVСубдискретизация насыщенности : 4:2:0Битовая глубина : 8 битТип развёртки : ПрогрессивнаяБит/(Пиксели*Кадры) : 0.033Размер потока : 170 Мбайт (88%)Заголовок : ISO Media file produced by Google Inc.Дата кодирования : UTC 2016-08-17 16:27:54Дата пометки : UTC 2016-08-17 16:27:54Цветовой диапазон : LimitedОсновные цвета : BT.709Характеристики трансфера : BT.709Коэффициенты матрицы : BT.709АудиоИдентификатор : 2Формат : AACФормат/Информация : Advanced Audio CodecПрофиль формата : LCИдентификатор кодека : 40Продолжительность : 25 м. 52 с.Вид битрейта : ПеременныйБитрейт : 126 Кбит/секКаналы : 2 каналаРасположение каналов : Front: L RЧастота : 44,1 КГцЧастота кадров : 43,066 кадра/сек (1024 spf)Метод сжатия : С потерямиРазмер потока : 23,3 Мбайт (12%)Заголовок : ISO Media file produced by Google Inc.Дата кодирования : UTC 2016-08-17 16:27:54Дата пометки : UTC 2016-08-17 16:27:54.

(+/-) «Внимание! Раздача ведётся путём добавления новых серий»

3. Скачать новый торрент и запустить его у себя в клиенте вместо старого, при этом указать клиенту путь в старую папку куда и должно происходить скачивание новых серий. Ваш клиент при этом должен произвести хеширование (проверку) старой папки и будет докачивать только те серии, которых у вас ещё нет. Старые серии при этом не удаляются, а продолжают раздаваться! Eсли вы уже удалили старые серии, то предотвратить повторную закачку старых серий можно, отжав галочку в соответствующих местах при запуске нового торрента.

Три кота (2015-2016) скачать торрент.

Жанр: мультсериал, рисованный, детский, познавательный, обучающий.

Мультик три кошака торрент в важном качестве 2016

Рубрики: Файлы

Добавить комментарий

Ваш e-mail не будет опубликован. Обязательные поля помечены *